#TITLE:Aikoi (edit version);
#SUBTITLE:- Tsubasa Chronicle;
#ARTIST:FictionJunction YUUKA;
#TITLETRANSLIT:;
#SUBTITLETRANSLIT:;
#ARTISTTRANSLIT:;
#CREDIT:Tweety3187;
#BANNER:aikoi-logo.jpg;
#BACKGROUND:aikoi-bg.jpg;
#LYRICSPATH:;
#CDTITLE:cdtitle02.png;
#MUSIC:02 - aikoi.mp3;
#OFFSET:1.280;
#SAMPLESTART:99.980;
#SAMPLELENGTH:12.000;
#SELECTABLE:YES;
#BPMS:0.000=122.020;
#STOPS:;
#BGCHANGES:;
// cache tags:
#FIRSTBEAT:4.000;
#LASTBEAT:360.000;
#SONGFILENAME:Songs/nhac/[Tweety3187] Aikoi (Edit ver.) -Tsubasa Chronicle/Aikoi.sm;
#HASMUSIC:1;
#HASBANNER:1;
#MUSICLENGTH:179.777;
// end cache tags

//---------------dance-single - ----------------
#NOTES:
     dance-single:
     :
     Challenge:
     11:
     1.000,1.000,1.000,0.150,1.000,1020.000,555.000,27.000,0.000,0.000:
0000
0000
0000
0000
,
1100
1100
0101
1001
,
0110
1010
0101
0011
,
1100
0011
0011
0110
,
0101
1010
1010
0101
,
0101
1010
0110
0011
,
1010
1100
0011
0101
,
1010
0101
0011
0101
,
0101
0000
0000
0000
1010
0000
0110
0110
0011
1010
1100
1100
0011
0011
0101
0101
,
1001
0100
0011
1000
0110
0000
0001
0100
1010
0001
1100
0100
0011
0000
1000
0010
,
0101
0010
0101
1000
0110
0000
0001
0100
1010
0001
1010
0100
0011
0000
0100
1000
,
0011
0100
1010
0100
0011
0000
0100
0001
1010
0001
0110
0000
0101
0000
0010
0010
,
0101
1000
0110
1000
0101
0000
1000
0001
0110
0001
0110
1000
0110
0000
0001
0100
,
1010
0100
1010
0001
1010
0000
0100
1000
0011
1000
0011
0100
0011
0000
1000
0010
,
0101
0001
1010
0001
0110
0000
0001
1000
0110
0001
1100
0001
0110
0000
1000
0100
,
0011
1000
0101
1000
0110
0000
0001
0001
1100
0010
0011
1000
0101
0000
0001
0100
,
1010
0001
0110
1000
0011
0000
0100
0001
1010
0001
1100
0100
0011
0100
1010
0100
,
1001
0000
0010
1001
0100
0001
1000
0100
0011
0000
1010
0001
1010
0001
0110
1000
,
0011
0000
0100
0011
0100
1000
0010
0100
1001
0000
0110
1000
0101
0010
1100
0001
,
0110
0010
0010
1100
1100
0000
0110
0000
1001
1000
1000
0101
0011
0000
1100
0000
,
0101
0001
0001
0110
1100
0000
0110
0000
1001
0010
1100
0001
1010
0100
0011
0100
,
1001
0000
0010
0101
0100
0010
1000
0100
0011
0000
1010
0100
0011
1000
0101
0010
,
1100
0000
0010
0101
1000
0010
0100
0001
1100
0000
0110
0100
1010
0001
0110
0001
,
1010
1000
1000
0011
0110
0000
1100
0000
0110
0100
0100
0011
0011
0000
1001
0000
,
0011
0001
0001
0110
1100
0000
1010
0000
0101
0010
1100
0001
0110
1000
0101
0010
,
1001
0000
0010
0201
1000
0001
0010
0301
1010
0000
0001
0000
1100
0000
0010
0000
,
1001
0010
0100
1000
0011
0100
0010
1000
0101
0000
0110
1000
0110
0001
1010
0100
,
0011
0000
1000
0110
1010
0000
0001
0110
,
1010
0011
0100
0011
0000
1000
0110
0001
,
1010
0100
0011
1000
1010
0000
0010
0101
,
0000
2000
0000
0000
3000
0011
1100
1001
,
0110
0000
1000
0110
0011
0000
0000
0001
,
1010
0110
0001
1010
0000
0100
1010
0100
,
1010
0000
0100
0011
0011
0000
0000
0001
,
1001
0000
1001
0000
1001
0000
1001
0000
1010
1010
1010
1010
0101
0101
0101
0101
,
1010
0001
0110
1000
0011
0100
1010
0001
0110
0011
1010
0011
0110
1000
0011
0100
,
1010
1100
0011
0101
0110
0001
1010
0100
0011
1000
0110
1000
0011
0100
0011
1000
,
0110
0001
1010
0100
0011
0001
1010
0100
1001
1001
0110
0110
0011
0100
1010
0100
,
0011
0101
1010
1100
1100
0010
0101
0010
1100
0001
0110
1000
0101
0010
1010
0100
,
0011
0100
0010
0001
1010
0000
0001
0000
0110
0001
1000
0100
0011
0000
0101
0000
,
0010
0001
1010
0001
1100
0000
1100
0000
0010
0100
0011
1000
0101
1000
0110
0001
,
2100
0000
0100
3000
0021
0000
1000
0030
0201
0000
0001
0000
0301
0000
1010
0000
,
0100
0000
0011
1000
0110
1000
0101
0010
1010
0100
0011
1000
0110
1010
0011
0110
,
1100
0010
1001
0100
1010
0001
1100
0010
1001
1010
1100
1010
1001
0100
1010
0001
,
1100
0101
1010
0011
1001
0010
1100
0001
1010
0100
1001
0100
1010
0001
1010
0100
,
1001
0010
1100
0001
1010
0010
1100
0001
0110
0110
1001
1001
1010
0001
1100
0001
,
1010
0011
1100
0101
0101
1000
0011
1000
0101
0010
1001
0100
0011
1000
1100
0001
,
1010
0001
1000
0010
0100
0000
0110
0000
1000
0010
0100
0001
1010
0000
0011
0000
,
1000
0010
1100
0010
0101
0000
0101
0000
1000
0001
1010
0100
0011
0100
1001
0010
,
0201
0000
0001
0300
2010
0000
0100
3000
0012
0000
0010
0000
0013
0000
1100
0000
,
0001
0000
1010
0100
1001
0100
0011
1000
1100
0001
1010
0100
1001
0100
1010
0001
,
2001
0010
0100
0010
0001
0010
0001
0010
0001
0000
0000
0001
3001
0000
1000
0000
,
0101
0010
1000
0100
0011
1000
0100
0001
1100
0000
0000
0110
1100
0000
0001
0000
,
0110
1000
0001
0100
1010
0001
0100
0010
0011
0000
0000
1010
1010
0000
0001
0000
,
1010
0001
0100
0010
1100
0001
0100
0010
1100
0000
0011
0000
0110
0000
0011
0000
,
0101
0000
1000
0101
0010
0001
0100
0010
1001
0000
1100
0001
1100
0001
1010
0100
,
1001
0000
0010
1001
0010
0100
1000
0010
0101
0000
1010
0100
0011
1000
0110
0001
,
1010
1000
1000
0110
0110
0000
1010
0000
0101
0100
0100
0011
1001
0000
0110
0000
,
0011
0001
0001
1010
0110
0000
1010
0000
0101
1000
0110
0001
1100
0010
1001
0010
,
0101
0000
1000
0011
0010
1000
0100
0010
1001
0000
1100
0010
1001
0100
0011
1000
,
0110
0000
1000
0011
0100
1000
0010
0001
0110
0000
1010
0010
1100
0001
1010
0001
,
1100
0100
0100
1001
1010
0000
0110
0000
1010
0010
0010
1001
1001
0000
0101
0000
,
1001
0001
0101
1010
0110
0000
1100
0000
0011
1000
0110
0001
1010
0100
0011
1000
,
0101
0000
1000
0021
0100
0001
1000
0031
1100
0000
0001
0000
0110
0000
1000
0000
,
0101
1000
0010
0100
1001
0010
1000
0100
0011
0000
1010
0100
1010
0001
1100
0010
,
1001
0000
0100
1010
1100
0000
0001
1010
,
1100
1001
0010
1001
0000
0100
1010
0001
,
1100
0010
1001
0100
1100
0000
1000
0011
,
0000
0200
0320
0000
0030
1001
0110
0101
,
1010
0000
0100
1010
1001
0000
0000
0001
,
1100
1010
0001
1100
0000
0010
1100
0010
,
1100
0000
0010
1001
1001
0000
0000
0001
,
0101
0000
0101
0000
0101
0000
0101
0000
1100
1100
1100
1100
0011
0011
0011
0011
,
1100
0001
1010
0100
1001
0010
1100
0001
1010
1001
1100
1001
1010
0100
1001
0010
,
1100
0110
1001
0011
1010
0001
1100
0010
1001
0100
1010
0100
1001
0010
1001
0100
,
1010
0001
1100
0010
1001
0001
1100
0010
0101
0101
1010
1010
1001
0010
1100
0010
,
1001
0011
1100
0110
0110
1000
0011
1000
0110
0001
1010
0100
0011
1000
1100
0010
,
1001
0010
1000
0001
1100
0000
0001
0000
1010
0001
0100
0010
1001
0000
0011
0000
,
1000
0001
1100
0001
0110
0000
0110
0000
1000
0010
1001
0100
0011
0100
1010
0001
,
0210
0000
0010
0300
2001
0000
0100
3000
0021
0000
0001
0000
0031
0000
1100
0000
,
0010
0000
1001
0100
1010
0100
0011
1000
1100
0010
1001
0100
1010
1100
1001
1010
,
0110
1000
0101
0010
1100
0001
0110
1000
0101
1100
0110
1100
0101
0010
1100
0001
,
0110
0011
1100
1001
0101
1000
0110
0001
1100
0010
0101
0010
1100
0001
1100
0010
,
0101
1000
0110
0001
1100
1000
0110
0001
1010
1010
0101
0101
1100
0001
0110
0001
,
1100
1001
0110
0011
0011
0100
1001
0100
0011
1000
0101
0010
1001
0100
0110
0001
,
1100
0001
0100
1000
0010
0000
1010
0000
0100
1000
0010
0001
1100
0000
1001
0000
,
0100
1000
0110
1000
0011
0000
0011
0000
0100
0001
1100
0010
1001
0010
0101
1000
,
0021
0000
0001
0030
1200
0000
0010
0300
1002
0000
1000
0000
1003
0000
0020
0000
,
0000
0230
0302
0203
0320
0230
2300
3200
,
0302
0000
0000
0000
,
0003
0000
0000
0000
;

//---------------dance-single - ----------------
#NOTES:
     dance-single:
     :
     Medium:
     5:
     0.335,0.425,0.451,0.044,0.000,333.000,81.000,8.000,0.000,0.000:
0000
0000
0000
0000
,
1000
1000
1000
1000
,
1000
1000
1000
1000
,
0001
0001
0001
0001
,
0001
0001
0001
0001
,
1000
1000
1000
1000
,
1000
1000
1000
1000
,
0001
0001
0001
0001
,
0001
0001
0001
0001
,
1000
0100
0001
0010
,
0100
0001
1000
0010
,
0100
0001
0010
0001
,
0100
0010
1000
0100
,
0001
0010
0100
0001
,
1000
0010
0100
0001
,
0100
0010
0100
0001
,
1000
0100
0010
0001
,
1100
0010
0100
1000
,
0011
0100
0010
1000
,
0011
0100
1001
0010
,
1100
0001
0110
0001
,
1010
0100
0001
0010
,
0101
0010
1000
0100
,
1010
0001
0110
0001
,
1010
0100
0011
0100
,
2001
0001
0001
0001
,
0001
0001
3001
0010
,
0110
0000
0011
0000
,
1010
0000
0000
0000
,
0110
0000
0110
0000
,
0011
0000
0000
0000
,
1010
0000
0110
0000
,
1001
0000
0000
0000
,
0001
0001
0001
0000
,
1020
1000
1000
1000
1000
1000
1000
1030
,
0001
0010
0100
0000
1001
0000
0100
0000
,
0010
0100
0001
1000
,
0100
0010
1000
0000
0101
0000
0010
0000
,
0100
0001
0010
1000
,
1001
0010
0100
0001
,
0010
0100
0001
0010
,
1100
0011
1100
0011
,
1010
0100
1001
0010
,
0001
0100
0010
0000
1010
0000
0001
0000
,
0100
0001
0010
0100
,
1000
1000
1000
0000
1001
0000
0010
0000
,
0100
0001
0010
0100
,
0011
0100
0001
1000
,
0010
0100
1000
0100
,
0110
1001
0110
1001
,
0001
0100
0010
1000
,
0120
0100
0100
0100
,
0100
0100
0100
0130
,
1002
1000
1000
1000
,
1000
1000
1000
1003
,
0011
0100
0010
0001
,
1100
0010
0100
0001
,
1100
0010
1001
0100
,
0011
1000
0110
1000
,
0101
0010
1000
0100
,
1010
0100
0001
0010
,
0101
1000
0110
1000
,
0101
0010
1100
0010
,
1002
1000
1000
1000
,
1000
1000
1003
0100
,
0110
0000
1100
0000
,
0101
0000
0000
0000
,
0110
0000
0110
0000
,
1100
0000
0000
0000
,
0101
0000
0110
0000
,
1001
0000
0000
0000
,
1000
1000
1000
0000
,
0201
0001
0001
0001
0001
0001
0001
0301
,
1000
0100
0010
0000
1001
0000
0010
0000
,
0100
0010
1000
0001
,
0010
0100
0001
0000
1010
0000
0100
0000
,
0010
1000
0100
0001
,
1001
0100
0010
1000
,
0100
0010
1000
0100
,
0011
1100
0011
1100
,
0101
0010
1001
0100
,
1000
0010
0100
0000
0101
0000
1000
0000
,
0010
1000
0100
0010
,
0001
0001
0001
0000
1001
0000
0100
0000
,
0010
1000
0100
0010
,
1100
0010
1000
0001
,
0100
0010
0001
0010
,
0110
1001
0110
1001
,
2002
0000
0000
0000
,
0000
0000
0000
0000
0000
0000
0000
3003
;

//---------------dance-single - Copied from----------------
#NOTES:
     dance-single:
     Copied from:
     Hard:
     10:
     1.000,1.000,1.000,0.150,1.000,1004.000,508.000,27.000,0.000,0.000:
0000
0000
0000
0000
,
1100
1100
0101
1001
,
0110
1010
0101
0011
,
1100
0011
0011
0110
,
0101
1010
1010
0101
,
0101
1010
0110
0011
,
1010
1100
0011
0101
,
1010
0101
0011
0101
,
0101
0000
0000
0000
1010
0000
0110
1000
0011
0010
1100
1000
0011
1000
0101
0010
,
1001
0100
0011
1000
0110
0000
0001
0100
1010
0001
1100
0100
0011
0000
1000
0010
,
0101
0010
0101
1000
0110
0000
0001
0100
1010
0001
1010
0100
0011
0000
0100
1000
,
0011
0100
1010
0100
0011
0000
0100
0001
1010
0001
0110
0000
0101
0000
0010
0010
,
0101
1000
0110
1000
0101
0000
1000
0001
0110
0001
0110
1000
0110
0000
0001
0100
,
1010
0100
1010
0001
1010
0000
0100
1000
0011
1000
0011
0100
0011
0000
1000
0010
,
0101
0001
1010
0001
0110
0000
0001
1000
0110
0001
1100
0001
0110
0000
1000
0100
,
0011
1000
0101
1000
0110
0000
0001
0001
1100
0010
0011
1000
0101
0000
0001
0100
,
1010
0001
0110
1000
0011
0000
0100
0001
1010
0001
1100
0100
0011
0100
1010
0100
,
1001
0000
0010
1001
0100
0001
1000
0100
0011
0000
1010
0001
1010
0001
0110
1000
,
0011
0000
0100
0011
0100
1000
0010
0100
1001
0000
0110
1000
0101
0010
1100
0001
,
0110
0010
0010
1100
1100
0000
0110
0000
1001
1000
1000
0101
0011
0000
1100
0000
,
0101
0001
0001
0110
1100
0000
0110
0000
1001
0010
1100
0001
1010
0100
0011
0100
,
1001
0000
0010
0101
0100
0010
1000
0100
0011
0000
1010
0100
0011
1000
0101
0010
,
1100
0000
0010
0101
1000
0010
0100
0001
1100
0000
0110
0100
1010
0001
0110
0001
,
1010
1000
1000
0011
0110
0000
1100
0000
0110
0100
0100
0011
0011
0000
1001
0000
,
0011
0001
0001
0110
1100
0000
1010
0000
0101
0010
1100
0001
0110
1000
0101
0010
,
1001
0000
0010
0201
1000
0001
0010
0301
1010
0000
0001
0000
1100
0000
0010
0000
,
1001
0010
0100
1000
0011
0100
0010
1000
0101
0000
0110
1000
0110
0001
1010
0100
,
0011
0000
1000
0110
1010
0000
0001
0110
,
1010
0011
0100
0011
0000
1000
0110
0001
,
1010
0100
0011
1000
1010
0000
0010
0101
,
0000
2000
0000
0000
3000
0011
1100
1001
,
0110
0000
1000
0110
0011
0000
0000
0001
,
1010
0110
0001
1010
0000
0100
1010
0100
,
1010
0000
0100
0011
0011
0000
0000
0001
,
1001
0000
1001
0000
1001
0000
1001
0000
1010
0001
1010
0100
0011
1000
0011
0100
,
1010
0001
0110
1000
0011
0100
1010
0001
0110
0001
1010
0001
0110
0000
0011
0100
,
1010
0100
0011
0001
0110
0000
1010
0100
0011
1000
0110
1000
0011
0100
0011
1000
,
0110
0001
1010
0100
0011
0001
1010
0100
1001
0001
0110
1000
0011
0000
1010
0100
,
0011
0100
1010
0001
1100
0000
0101
0010
1100
0001
0110
1000
0101
0010
1010
0100
,
0011
0100
0010
0001
1010
0000
0001
0000
0110
0001
1000
0100
0011
0000
0101
0000
,
0010
0001
1010
0001
1100
0000
1100
0000
0010
0100
0011
1000
0101
1000
0110
0001
,
2100
0000
0100
3000
0021
0000
1000
0030
0201
0000
0001
0000
0301
0000
1010
0000
,
0100
0000
0011
1000
0110
1000
0101
0010
1010
0100
0011
1000
0110
1000
0011
0010
,
1100
0010
1001
0100
1010
0001
1100
0010
1001
0010
1100
0010
1001
0000
1010
0001
,
1100
0001
1010
0001
1001
0000
1100
0001
1010
0100
1001
0100
1010
0001
1010
0100
,
1001
0010
1100
0001
1010
0010
1100
0001
1100
0010
1001
0100
1010
0000
1100
0001
,
1010
0001
1100
0010
0101
0000
0011
1000
0101
0010
1001
0100
0011
1000
1100
0001
,
1010
0001
1000
0010
0100
0000
0110
0000
1000
0010
0100
0001
1010
0000
0011
0000
,
1000
0010
1100
0010
0101
0000
0101
0000
1000
0001
1010
0100
0011
0100
1001
0010
,
0201
0000
0001
0300
2010
0000
0100
3000
0012
0000
0010
0000
0013
0000
1100
0000
,
0001
0000
1010
0100
1001
0100
0011
1000
1100
0001
1010
0100
1001
0100
1010
0001
,
2001
0010
0100
0010
0001
0010
0001
0010
0001
0000
0000
0001
3001
0000
1000
0000
,
0101
0010
1000
0100
0011
1000
0100
0001
1100
0000
0000
0110
1100
0000
0001
0000
,
0110
1000
0001
0100
1010
0001
0100
0010
0011
0000
0000
1010
1010
0000
0001
0000
,
1010
0001
0100
0010
1100
0001
0100
0010
1100
0000
0011
0000
0110
0000
0011
0000
,
0101
0000
1000
0101
0010
0001
0100
0010
1001
0000
1100
0001
1100
0001
1010
0100
,
1001
0000
0010
1001
0010
0100
1000
0010
0101
0000
1010
0100
0011
1000
0110
0001
,
1010
1000
1000
0110
0110
0000
1010
0000
0101
0100
0100
0011
1001
0000
0110
0000
,
0011
0001
0001
1010
0110
0000
1010
0000
0101
1000
0110
0001
1100
0010
1001
0010
,
0101
0000
1000
0011
0010
1000
0100
0010
1001
0000
1100
0010
1001
0100
0011
1000
,
0110
0000
1000
0011
0100
1000
0010
0001
0110
0000
1010
0010
1100
0001
1010
0001
,
1100
0100
0100
1001
1010
0000
0110
0000
1010
0010
0010
1001
1001
0000
0101
0000
,
1001
0001
0101
1010
0110
0000
1100
0000
0011
1000
0110
0001
1010
0100
0011
1000
,
0101
0000
1000
0021
0100
0001
1000
0031
1100
0000
0001
0000
0110
0000
1000
0000
,
0101
1000
0010
0100
1001
0010
1000
0100
0011
0000
1010
0100
1010
0001
1100
0010
,
1001
0000
0100
1010
1100
0000
0001
1010
,
1100
1001
0010
1001
0000
0100
1010
0001
,
1100
0010
1001
0100
1100
0000
1000
0011
,
0000
0200
0320
0000
0030
1001
0110
0101
,
1010
0000
0100
1010
1001
0000
0000
0001
,
1100
1010
0001
1100
0000
0010
1100
0010
,
1100
0000
0010
1001
1001
0000
0000
0001
,
0101
0000
0101
0000
0101
0000
0101
0000
1100
0001
1010
0100
0011
1000
0101
0010
,
1100
0001
1010
0100
1001
0010
1100
0001
1010
0001
1100
0001
1010
0000
1001
0010
,
1100
0010
1001
0100
1010
0000
1100
0010
1001
0100
1010
0100
1001
0010
1001
0100
,
1010
0001
1100
0010
1001
0001
1100
0001
0110
0001
1010
0100
1001
0000
1100
0010
,
1001
0001
1100
0001
0110
0000
0011
1000
0110
0001
1010
0100
0011
1000
1100
0010
,
1001
0010
1000
0001
1100
0000
0001
0000
1010
0001
0100
0010
1001
0000
0011
0000
,
1000
0001
1100
0001
0110
0000
0110
0000
1000
0010
1001
0100
0011
0100
1010
0001
,
0210
0000
0010
0300
2001
0000
0100
3000
0021
0000
0001
0000
0031
0000
1100
0000
,
0010
0000
1001
0100
1010
0100
0011
1000
1100
0010
1001
0100
1010
1100
1001
1010
,
0110
1000
0101
0010
1100
0001
0110
1000
0101
1000
0110
1000
0101
0000
1100
0001
,
0110
0001
1100
0010
0101
1000
0110
0000
1100
0010
0101
0010
1100
0001
1100
0010
,
0101
1000
0110
0001
1100
1000
0110
0001
1100
0010
0101
0010
1100
0000
0110
0001
,
1100
0001
0110
1000
0011
0000
1001
0100
0011
1000
0101
0010
1001
0100
0110
0001
,
1100
0001
0100
1000
0010
0000
1010
0000
0100
1000
0010
0001
1100
0000
1001
0000
,
0100
1000
0110
1000
0011
0000
0011
0000
0100
0001
1100
0010
1001
0010
0101
1000
,
0021
0000
0001
0030
1200
0000
0010
0300
1002
0000
1000
0000
1003
0000
0020
0000
,
0000
0230
0302
0203
0320
0230
2300
3200
,
0302
0000
0000
0000
,
0003
0000
0000
0000
;

//---------------dance-single - Copied from----------------
#NOTES:
     dance-single:
     Copied from:
     Easy:
     4:
     0.315,0.350,0.350,0.089,0.000,317.000,63.000,16.000,0.000,0.000:
0000
0000
0000
0000
,
1000
1000
1000
1000
,
0100
0100
0100
0100
,
0001
0001
0001
0001
,
0001
0001
0001
0001
,
0100
0100
0100
0100
,
0100
0100
0100
0100
,
0001
0001
0001
0001
,
0001
0001
0001
0001
,
0100
0010
0001
1000
,
0010
0001
0100
1000
,
0010
0001
1000
0001
,
0010
1000
0100
0010
,
0001
1000
0010
0001
,
0100
1000
0010
0001
,
0010
1000
0010
0001
,
0100
0010
1000
0001
,
0110
1000
0010
0100
,
0001
0010
1000
0100
,
1001
0010
0101
1000
,
0100
0001
1010
0001
,
1100
0010
0001
1000
,
0001
1000
0100
0010
,
1100
0001
1010
0001
,
1000
0010
1001
0010
,
0201
0001
0001
0001
,
0001
0001
0301
1000
,
1010
0000
0011
0000
,
1100
0000
0000
0000
,
1010
0000
1010
0000
,
1001
0000
0000
0000
,
1100
0000
1010
0000
,
0101
0000
0000
0000
,
0001
0001
0001
0000
,
2100
0000
0100
0000
0100
0000
0100
3000
,
0001
0010
0101
0010
,
1000
0010
0001
0100
,
0010
0100
0011
1000
,
0010
0001
1000
0100
,
0101
1000
0010
0001
,
1000
0010
0001
1000
,
0210
0310
2001
3001
,
1000
0010
0101
1000
,
0001
1000
1100
0001
,
0010
0001
1000
0010
,
0100
0100
0101
1000
,
0010
0001
1000
0010
,
1001
0010
0001
0100
,
1000
0010
0100
0010
,
1020
1030
0021
0031
,
0100
0010
1000
0001
,
2010
0010
0010
0010
,
0010
0010
0010
3010
,
0102
0100
0100
0100
,
0100
0100
0100
0103
,
1010
0100
1000
0010
,
0001
1000
0100
0010
,
0101
1000
0011
0100
,
0010
0001
1100
0001
,
0110
1000
0001
0100
,
0001
0100
0010
1000
,
0110
0001
1100
0001
,
0100
1000
0101
1000
,
0021
0001
0001
0001
,
0001
0001
0031
0100
,
1100
0000
1001
0000
,
0110
0000
0000
0000
,
1100
0000
1100
0000
,
0101
0000
0000
0000
,
0110
0000
1100
0000
,
0011
0000
0000
0000
,
0001
0001
0001
0000
,
0210
0000
0010
0000
0010
0000
0010
0300
,
0001
1000
0011
1000
,
0100
1000
0001
0010
,
1000
0010
1001
0100
,
1000
0001
0100
0010
,
0011
0100
1000
0001
,
0100
1000
0001
0100
,
1020
1030
0201
0301
,
0100
1000
0011
0100
,
0001
0100
0110
0001
,
1000
0001
0100
1000
,
0010
0010
0011
0100
,
1000
0001
0100
1000
,
0101
1000
0001
0010
,
0100
1000
0010
1000
,
2100
3100
2001
3001
,
2002
0000
0000
0000
,
0000
0000
0000
0000
0000
0000
0000
3003
;
